Kamasutra Nights UNCENSORED Hot Adult Indian English Movies DVDRi...

  • Category XXX
  • Type Video
  • Language English
  • Total size 870.3 MB
  • Uploaded By nehalpuja
  • Downloads 9
  • Last checked 17 minutes ago
  • Date uploaded 17 minutes ago
  • Seeders 0
  • Leechers 0

Infohash : A447E130A8D194DADD799C529A78FBAB1E7AF743

18+ Kamasutra Nights UNCENSORED Hot Adult Indian English Movies DVDRip 5.1 x264 with Sample ☻rDX☻
===============================================================================================

SCREEN SHOTS:





or

http://iphonehosting.eu/2018/11/b/buy/1.html


File size : 861 MiB
Duration : 1 h 27 min
Overall bit rate : 1 380 kb/s
Movie name : 18+ Kamasutra Nights UNCENSORED Hot Adult Indian English Movies DVDRip 5.1 x264 ☻rDX☻

Video
ID : 2
Format : AVC
Format/Info : Advanced Video Codec
Format profile : [email protected]
Format settings, CABAC : No
Format settings, ReFrames : 1 frame
Codec ID : V_MPEG4/ISO/AVC
Duration : 1 h 27 min
Bit rate : 840 kb/s
Width : 640 pixels
Height : 270 pixels
Display aspect ratio : 2.40:1
Frame rate mode : Constant
Frame rate : 24.000 FPS
Color space : YUV
Chroma subsampling : 4:2:0
Bit depth : 8 bits
Scan type : Progressive
Bits/(Pixel*Frame) : 0.203
Stream size : 524 MiB (61%)
Title : ☻rDX☻
Default : Yes
Forced : No
Color range : Limited
Color primaries : BT.709
Transfer characteristics : BT.709
Matrix coefficients : BT.709

Audio
ID : 1
Format : AC-3
Format/Info : Audio Coding 3
Mode extension : CM (complete main)
Format settings, Endianness : Big
Codec ID : A_AC3
Duration : 1 h 27 min
Bit rate mode : Constant
Bit rate : 512 kb/s
Channel(s) : 6 channels
Channel positions : Front: L C R, Side: L R, LFE
Sampling rate : 44.1 kHz
Frame rate : 28.711 FPS (1536 spf)
Bit depth : 16 bits
Compression mode : Lossy
Stream size : 319 MiB (37%)
Title : ☻rDX☻
Default : Yes
Forced : No

http://www.imdb.com/title/tt0846033


Files:

18+ Kamasutra Nights UNCENSORED Hot Adult Indian English Movies DVDRip 5.1 x264 with Sample ☻rDX☻
  • Sample ~ 18+ Kamasutra Nights UNCENSORED Hot Adult Indian English Movies DVDRip 5.1 x264 ☻rDX☻.mkv (9.5 MB)
  • 18+ Kamasutra Nights UNCENSORED Hot Adult Indian English Movies DVDRip 5.1 x264 ☻rDX☻.mkv (860.9 MB)

There are currently no comments. Feel free to leave one :)

Code:

  • udp://tracker.coppersurfer.tk:6969/announce
  • udp://tracker.leechers-paradise.org:6969/announce
  • udp://tracker.pirateparty.gr:6969/announce
  • udp://eddie4.nl:6969/announce
  • udp://tracker.zer0day.to:1337/announce
  • udp://9.rarbg.me:2710/announce
  • udp://9.rarbg.to:2710/announce
  • udp://public.popcorn-tracker.org:6969/announce
  • udp://p4p.arenabg.ch:1337/announce
  • udp://tracker.vanitycore.co:6969/announce
  • udp://ipv4.tracker.harry.lu:80/announce
  • udp://tracker.opentrackr.org:1337/announce
  • udp://p4p.arenabg.com:1337/announce
  • udp://shadowshq.yi.org:6969/announce
SitemapPasti Pronti a Zona | How The Universe Works | Peppermint (2018) secondary education - 1197 Words | Berlin Station | Beyblade Burst (51)