Time Jumpers 2018 1080p WEB-DL x264 [MW]

  • Category Movies
  • Type HD
  • Language English
  • Total size 1.5 GB
  • Uploaded By moviezworldz
  • Downloads 4
  • Last checked 21 minutes ago
  • Date uploaded 21 minutes ago
  • Seeders 0
  • Leechers 0

Infohash : F2CDA45728D3A618306E44C7C22F1CF06F95FA16




General
Format : Matroska
Format version : Version 4 / Version 2
File size : 1.50 GiB
Duration : 1 h 19 min
Overall bit rate : 2 688 kb/s

Video
ID : 1
Format : AVC
Format/Info : Advanced Video Codec
Format profile : [email protected]
Format settings : CABAC / 4 Ref Frames
Format settings, CABAC : Yes
Format settings, RefFrames : 4 frames
Codec ID : V_MPEG4/ISO/AVC
Duration : 1 h 19 min
Bit rate : 2 500 kb/s
Width : 1 920 pixels
Height : 1 080 pixels
Display aspect ratio : 16:9
Frame rate mode : Constant
Frame rate : 23.976 (24000/1001) FPS
Color space : YUV
Chroma subsampling : 4:2:0
Bit depth : 8 bits
Scan type : Progressive
Bits/(Pixel*Frame) : 0.050
Stream size : 1.37 GiB (92%)
Writing library : x264 core 155 r2901 7d0ff22
Default : Yes
Forced : No

Audio
ID : 2
Format : AAC
Format/Info : Advanced Audio Codec
Format profile : LC
Codec ID : A_AAC-2
Duration : 1 h 19 min
Bit rate : 224 kb/s
Channel(s) : 2 channels
Channel positions : Front: L R
Sampling rate : 48.0 kHz
Frame rate : 46.875 FPS (1024 SPF)
Compression mode : Lossy
Stream size : 128 MiB (8%)
Language : English
Default : Yes
Forced : No

Text
ID : 3
Format : UTF-8
Codec ID : S_TEXT/UTF8
Codec ID/Info : UTF-8 Plain Text
Duration : 1 h 19 min
Bit rate : 29 b/s
Count of elements : 707
Stream size : 17.4 KiB (0%)
Title : English [SDH]
Language : English
Default : No
Forced : No

Click To View Image







Files:

Time Jumpers 2018 1080p WEB-DL x264 [MW]
  • Time Jumpers 2018 1080p WEB-DL x264 [MW].mkv (1.5 GB)

There are currently no comments. Feel free to leave one :)

Code:

  • udp://tracker.coppersurfer.tk:6969/announce
  • udp://tracker.pirateparty.gr:6969/announce
  • udp://tracker.tiny-vps.com:6969/announce
  • udp://9.rarbg.to:2730/announce
  • udp://tracker.opentrackr.org:1337/announce
  • udp://tracker.leechers-paradise.org:6969/announce
  • udp://public.popcorn-tracker.org:6969/announce
  • udp://tracker.vanitycore.co:6969/announce
SitemapBlack Panthers (6) | The Guernsey Literary and Potato Peel Pie Society (2018) RATING 7.1 / 10 QUALITY | Dragon Ball Super Episode 54 English Dub Arif V 216 Pelicula Completa HD 2018 | Gooweel (5) | Dragonaut: The Resonance