The Crow (1994) (1080p BluRay x265 HEVC 10bit AAC 5.1 Joy) [UTR]

  • Category Movies
  • Type HEVC/x265
  • Language English
  • Total size 1.3 GB
  • Uploaded By UTRCorp
  • Downloads 50
  • Last checked 1 hour ago
  • Date uploaded 9 hours ago
  • Seeders 13
  • Leechers 6

The Crow

ActionFantasyThriller

Exactly one year after young rock guitarist Eric Draven and his fiancée are brutally killed by a ruthless gang of criminals, Draven -- watched over by a hypnotic crow -- returns from the grave to exact revenge.

Infohash : 37444DADC20BE2F61CFB7282EA0F65CC3655AE0A








Media Information

Media Information

Code:

General
Format : Matroska
Format version : Version 4 / Version 2
File size : 1.26 GiB
Duration : 1 h 41 min
Overall bit rate : 1 763 kb/s
Movie name : The Crow 1994 (1080p x265 10bit FS100 Joy)[UTR]
Encoded date : UTC 2018-12-03 11:20:52
Writing application : mkvmerge v28.1.0 ('Morning Child') 64-bit
Writing library : libebml v1.3.6 + libmatroska v1.4.9
Cover : Yes
Attachments : cover.jpg
Writing frontend : StaxRip v1.8.2.0

Video
ID : 1
Format : HEVC
Format/Info : High Efficiency Video Coding
Format profile : Main [email protected]@Main
Codec ID : V_MPEGH/ISO/HEVC
Duration : 1 h 41 min
Bit rate : 1 500 kb/s
Width : 1 920 pixels
Height : 1 040 pixels
Display aspect ratio : 1.85:1
Frame rate mode : Constant
Frame rate : 23.976 (24000/1001) FPS
Color space : YUV
Chroma subsampling : 4:2:0
Bit depth : 10 bits
Bits/(Pixel*Frame) : 0.031
Stream size : 1.07 GiB (85%)
Writing library : x265 2.8+19-bcdc610cf5f0:[Windows][MSVC 1914][64 bit] 10bit
Encoding settings : cpuid=1111039 / frame-threads=4 / numa-pools=16 / wpp / no-pmode / no-pme / no-psnr / ssim / log-level=2 / input-csp=1 / input-res=1920x1040 / interlace=0 / total-frames=146565 / level-idc=0 / high-tier=1 / uhd-bd=0 / ref=4 / no-allow-non-conformance / no-repeat-headers / annexb / no-aud / no-hrd / info / hash=0 / no-temporal-layers / open-gop / min-keyint=23 / keyint=250 / gop-lookahead=0 / bframes=4 / b-adapt=2 / b-pyramid / bframe-bias=0 / rc-lookahead=80 / lookahead-slices=4 / scenecut=40 / radl=0 / no-intra-refresh / ctu=64 / min-cu-size=8 / rect / no-amp / max-tu-size=32 / tu-inter-depth=1 / tu-intra-depth=1 / limit-tu=0 / rdoq-level=2 / dynamic-rd=0.00 / ssim-rd / signhide / no-tskip / nr-intra=0 / nr-inter=0 / no-constrained-intra / strong-intra-smoothing / max-merge=3 / limit-refs=3 / limit-modes / me=3 / subme=3 / merange=57 / temporal-mvp / weightp / no-weightb / no-analyze-src-pics / deblock=0:0 / sao / no-sao-non-deblock / rd=4 / no-early-skip / rskip / no-fast-intra / no-tskip-fast / no-cu-lossless / no-b-intra / no-splitrd-skip / rdpenalty=0 / psy-rd=0.00 / psy-rdoq=1.00 / no-rd-refine / no-lossless / cbqpoffs=0 / crqpoffs=0 / rc=abr / bitrate=1500 / qcomp=0.60 / qpstep=4 / stats-write=0 / stats-read=2 / cplxblur=20.0 / qblur=0.5 / vbv-maxrate=4500 / vbv-bufsize=9000 / vbv-init=0.9 / ipratio=1.40 / pbratio=1.30 / aq-mode=2 / aq-strength=0.80 / cutree / zone-count=0 / no-strict-cbr / qg-size=32 / no-rc-grain / qpmax=69 / qpmin=0 / no-const-vbv / sar=0 / overscan=0 / videoformat=5 / range=0 / colorprim=2 / transfer=2 / colormatrix=2 / chromaloc=0 / display-window=0 / max-cll=0,0 / min-luma=0 / max-luma=1023 / log2-max-poc-lsb=8 / vui-timing-info / vui-hrd-info / slices=1 / no-opt-qp-pps / no-opt-ref-list-length-pps / multi-pass-opt-rps / scenecut-bias=0.05 / no-opt-cu-delta-qp / no-aq-motion / no-hdr / no-hdr-opt / no-dhdr10-opt / no-idr-recovery-sei / analysis-reuse-level=10 / scale-factor=0 / refine-intra=0 / refine-inter=0 / refine-mv=0 / limit-sao / ctu-info=0 / no-lowpass-dct / refine-mv-type=0 / copy-pic=1 / max-ausize-factor=1.0 / no-dynamic-refine / no-single-sei
Default : Yes
Forced : No

Audio
ID : 2
Format : AAC
Format/Info : Advanced Audio Codec
Format profile : LC
Codec ID : A_AAC
Duration : 1 h 41 min
Bit rate : 240 kb/s
Channel(s) : 6 channels
Channel positions : Front: L C R, Side: L R, LFE
Sampling rate : 48.0 kHz
Frame rate : 46.875 FPS (1024 spf)
Compression mode : Lossy
Delay relative to video : 9 ms
Stream size : 175 MiB (14%)
Language : English
Default : No
Forced : No

Subtitle #1
ID : 3
Format : VobSub
Muxing mode : zlib
Codec ID : S_VOBSUB
Codec ID/Info : Picture based subtitle format used on DVDs
Duration : 1 h 39 min
Bit rate : 4 324 b/s
Count of elements : 811
Stream size : 3.07 MiB (0%)
Language : Japanese
Default : No
Forced : No

Subtitle #2
ID : 4
Format : VobSub
Muxing mode : zlib
Codec ID : S_VOBSUB
Codec ID/Info : Picture based subtitle format used on DVDs
Duration : 1 h 34 min
Bit rate : 11.0 kb/s
Count of elements : 1124
Stream size : 7.44 MiB (1%)
Language : Japanese
Default : No
Forced : No

Subtitle #3
ID : 5
Format : VobSub
Muxing mode : zlib
Codec ID : S_VOBSUB
Codec ID/Info : Picture based subtitle format used on DVDs
Duration : 1 h 40 min
Bit rate : 12.4 kb/s
Count of elements : 1284
Stream size : 8.92 MiB (1%)
Language : Japanese
Default : No
Forced : No

Subtitle #4
ID : 6
Format : UTF-8
Codec ID : S_TEXT/UTF8
Codec ID/Info : UTF-8 Plain Text
Duration : 1 h 36 min
Bit rate : 26 b/s
Count of elements : 492
Stream size : 18.6 KiB (0%)
Language : Danish
Default : No
Forced : No

Subtitle #5
ID : 7
Format : UTF-8
Codec ID : S_TEXT/UTF8
Codec ID/Info : UTF-8 Plain Text
Duration : 1 h 41 min
Bit rate : 25 b/s
Count of elements : 549
Stream size : 19.4 KiB (0%)
Language : Dutch
Default : No
Forced : No

Subtitle #6
ID : 8
Format : UTF-8
Codec ID : S_TEXT/UTF8
Codec ID/Info : UTF-8 Plain Text
Duration : 1 h 33 min
Bit rate : 66 b/s
Count of elements : 845
Stream size : 45.3 KiB (0%)
Language : Persian
Default : No
Forced : No

Subtitle #7
ID : 9
Format : UTF-8
Codec ID : S_TEXT/UTF8
Codec ID/Info : UTF-8 Plain Text
Duration : 1 h 33 min
Bit rate : 36 b/s
Count of elements : 848
Stream size : 25.0 KiB (0%)
Language : French
Default : No
Forced : No

Subtitle #8
ID : 10
Format : UTF-8
Codec ID : S_TEXT/UTF8
Codec ID/Info : UTF-8 Plain Text
Duration : 1 h 33 min
Bit rate : 51 b/s
Count of elements : 498
Stream size : 35.4 KiB (0%)
Language : Greek
Default : No
Forced : No

Subtitle #9
ID : 11
Format : UTF-8
Codec ID : S_TEXT/UTF8
Codec ID/Info : UTF-8 Plain Text
Duration : 1 h 33 min
Bit rate : 52 b/s
Count of elements : 835
Stream size : 35.8 KiB (0%)
Language : Arabic
Default : No
Forced : No

Subtitle #10
ID : 12
Format : UTF-8
Codec ID : S_TEXT/UTF8
Codec ID/Info : UTF-8 Plain Text
Duration : 1 h 30 min
Bit rate : 37 b/s
Count of elements : 808
Stream size : 25.1 KiB (0%)
Language : Indonesian
Default : No
Forced : No

Subtitle #11
ID : 13
Format : UTF-8
Codec ID : S_TEXT/UTF8
Codec ID/Info : UTF-8 Plain Text
Duration : 1 h 30 min
Bit rate : 30 b/s
Count of elements : 529
Stream size : 20.1 KiB (0%)
Language : Norwegian
Default : No
Forced : No

Subtitle #12
ID : 14
Format : UTF-8
Codec ID : S_TEXT/UTF8
Codec ID/Info : UTF-8 Plain Text
Duration : 1 h 33 min
Bit rate : 45 b/s
Count of elements : 846
Stream size : 31.0 KiB (0%)
Language : Spanish
Default : No
Forced : No

Subtitle #13
ID : 15
Format : UTF-8
Codec ID : S_TEXT/UTF8
Codec ID/Info : UTF-8 Plain Text
Duration : 1 h 34 min
Bit rate : 30 b/s
Count of elements : 590
Stream size : 21.2 KiB (0%)
Language : Swedish
Default : No
Forced : No

Subtitle #14
ID : 16
Format : UTF-8
Codec ID : S_TEXT/UTF8
Codec ID/Info : UTF-8 Plain Text
Duration : 1 h 33 min
Bit rate : 50 b/s
Count of elements : 845
Stream size : 34.8 KiB (0%)
Language : Turkish
Default : No
Forced : No

Subtitle #15
ID : 17
Format : UTF-8
Codec ID : S_TEXT/UTF8
Codec ID/Info : UTF-8 Plain Text
Duration : 1 h 34 min
Bit rate : 60 b/s
Count of elements : 848
Stream size : 41.9 KiB (0%)
Language : Vietnamese
Default : No
Forced : No

Menu
00:00:00.000 : :Kapitel 01
00:04:33.690 : :Kapitel 02
00:16:57.558 : :Kapitel 03
00:22:05.365 : :Kapitel 04
00:35:26.999 : :Kapitel 05
00:44:37.549 : :Kapitel 06
00:48:41.043 : :Kapitel 07
00:52:03.870 : :Kapitel 08
00:59:43.997 : :Kapitel 09
01:01:11.584 : :Kapitel 10
01:02:34.000 : :Kapitel 11
01:06:02.249 : :Kapitel 12
01:07:16.949 : :Kapitel 13
01:09:29.915 : :Kapitel 14
01:17:58.465 : :Kapitel 15
01:21:14.619 : :Kapitel 16
01:32:55.778 : :Kapitel 17
01:34:21.113 : :Kapitel 18



Source Information

Code:

Release:
The.Crow.1994.Remastered.1080p.BluRay.Remux-BiRD.mkv (28.87 GBs)



We have no issue with individuals posting or re-uploading our torrents on a platform we aren't on. However, if this is something you'd like to do, please do so in a 'as-is' format. We ask that you do not create a new torrent, include all descriptions you see above including the UTR logo, tags, notes and screenshots. If you'd like to become a permanent poster on a website we don't post to, feel free to get in contact with a UniTeam member.

Files:

  • The Crow 1994 (1080p x265 10bit FS100 Joy).mkv (1.3 GB)

There are currently no comments. Feel free to leave one :)

Code:

  • udp://mgtracker.org:6969/announce
  • udp://tracker.coppersurfer.tk:6969/announce
  • udp://9.rarbg.com:2710/announce
  • udp://9.rarbg.to:2710/announce
  • udp://tracker.mgtracker.org:2710/announce
  • udp://public.popcorn-tracker.org:6969/announce
  • udp://tracker.torrent.eu.org:451/announce
  • udp://exodus.desync.com:6969/announce
  • udp://tracker.tiny-vps.com:6969/announce
  • udp://tracker.torrent.eu.org:451/announce
  • udp://open.demonii.si:1337/announce
  • udp://tracker.opentrackr.org:1337/announce
SitemapTales from Earthsea 2006 | Biographique | Paradise (feat. Benjamin Ingrosso) Tokyo Ravens | 1 rponse | Read More ...