Mirzapur 720p s01 season 1 complete web-dl H.264 by team techbang...

  • Category TV
  • Type HD
  • Language Hindi
  • Total size 3.5 GB
  • Uploaded By HEVCmovies
  • Downloads 3430
  • Last checked 56 minutes ago
  • Date uploaded 7 hours ago
  • Seeders 41
  • Leechers 395

Infohash : 301D49BFB0FA33F5D193D29FCDC2B5BB4CA8DBF2



techbangla.wtf





ideo
ID : 1
Format : AVC
Format/Info : Advanced Video Codec
Format profile : [email protected]
Format settings : CABAC / 4 Ref Frames
Format settings, CABAC : Yes
Format settings, RefFrames : 4 frames
Codec ID : avc1
Codec ID/Info : Advanced Video Coding
Duration : 53 min 16 s
Bit rate : 892 kb/s
Nominal bit rate : 1 000 kb/s
Width : 1 280 pixels
Height : 720 pixels
Display aspect ratio : 16:9
Frame rate mode : Constant
Frame rate : 25.000 FPS
Color space : YUV
Chroma subsampling : 4:2:0
Bit depth : 8 bits
Scan type : Progressive
Bits/(Pixel*Frame) : 0.039
Stream size : 340 MiB (75%)
Writing library : x264 core 155
Encoding settings : cabac=1 / ref=3 / deblock=1:0:0 / analyse=0x3:0x113 / me=hex / subme=7 / psy=1 / psy_rd=1.00:0.00 / mixed_ref=1 / me_range=16 / chroma_me=1 / trellis=1 / 8x8dct=1 / cqm=0 / deadzone=21,11 / fast_pskip=1 / chroma_qp_offset=-2 / threads=1 / lookahead_threads=1 / sliced_threads=0 / nr=0 / decimate=1 / interlaced=0 / bluray_compat=0 / constrained_intra=0 / bframes=3 / b_pyramid=2 / b_adapt=1 / b_bias=0 / direct=1 / weightb=1 / open_gop=0 / weightp=2 / keyint=250 / keyint_min=25 / scenecut=40 / intra_refresh=0 / rc_lookahead=40 / rc=cbr / mbtree=1 / bitrate=1000 / ratetol=1.0 / qcomp=0.60 / qpmin=0 / qpmax=69 / qpstep=4 / vbv_maxrate=1000 / vbv_bufsize=1000 / nal_hrd=none / filler=0 / ip_ratio=1.40 / aq=1:1.00

Audio #1
ID : 2
Format : AAC
Format/Info : Advanced Audio Codec
Format profile : LC
Codec ID : mp4a-40-2
Bit rate mode : Constant
Bit rate : 96.0 kb/s
Channel(s) : 2 channels
Channel positions : Front: L R
Sampling rate : 44.1 kHz
Frame rate : 43.066 FPS (1024 SPF)
Compression mode : Lossy

Default : Yes
Alternate group : 1

Audio #2
ID : 3
Format : AAC
Format/Info : Advanced Audio Codec
Format profile : LC
Codec ID : mp4a-40-2
Duration : 53 min 16 s
Bit rate mode : Constant
Bit rate : 96.0 kb/s
Channel(s) : 2 channels
Channel positions : Front: L R
Sampling rate : 44.1 kHz
Frame rate : 43.066 FPS (1024 SPF)
Compression mode : Lossy
Stream size : 36.6 MiB (8%)
Default : Yes
Alternate group : 2

Audio #3
ID : 4
Format : AAC
Format/Info : Advanced Audio Codec
Format profile : LC
Codec ID : mp4a-40-2
Duration : 53 min 16 s
Bit rate mode : Constant
Bit rate : 96.0 kb/s
Channel(s) : 2 channels
Channel positions : Front: L R
Sampling rate : 44.1 kHz
Frame rate : 43.066 FPS (1024 SPF)
Compression mode : Lossy
Stream size : 36.6 MiB (8%)
Default : Yes
Alternate group : 3

Files:

Mirzapur 720p s01 season 1 complete web-dl H.264 by team techbangla
  • techbangla.wtf.txt (0.0 KB)
  • s01e04.mp4 (358.4 MB)
  • s01e03.mp4 (364.9 MB)
  • s01e02.mp4 (373.9 MB)
  • s01e08.mp4 (394.2 MB)
  • s01e10.mp4 (398.8 MB)
  • s01e06.mp4 (400.3 MB)
  • s01e05.mp4 (411.1 MB)
  • s01e07.mp4 (448.2 MB)
  • s01e01.mp4 (454.1 MB)

Comments

Code:

  • udp://tracker.coppersurfer.tk:6969/announce
  • http://tracker.internetwarriors.net:1337/announce
  • udp://tracker.internetwarriors.net:1337/announce
  • udp://tracker.opentrackr.org:1337/announce
  • udp://9.rarbg.to:2710/announce
  • udp://exodus.desync.com:6969/announce
  • udp://public.popcorn-tracker.org:6969/announce
  • udp://tracker.vanitycore.co:6969/announce
  • udp://explodie.org:6969/announce
  • http://tracker.vanitycore.co:6969/announce
  • http://explodie.org:6969/announce
  • udp://tracker1.itzmx.com:8080/announce
  • http://tracker1.itzmx.com:8080/announce
  • udp://ipv4.tracker.harry.lu:80/announce
  • udp://tracker.torrent.eu.org:451/announce
SitemapA Vida Secreta de Zoe (Addicted) 2014 | Share on Google+ | AGPtek Mini TWS Twins Wireless Bluetooth Stereo Headset In-Ear Earphones Earbuds$15.95 26d left Harry Potter And The Order Of The Phoenix | 1,243,049 05:17 Gelas Gelas Kaca Nia Daniati | Lost.Staffel.4.COMPLETE.German.DL.DVDRiP.XviD