Paltan 2018 x264 720p HD Hindi GOPISAHI

  • Category Movies
  • Type Bollywood
  • Language Hindi
  • Total size 735.4 MB
  • Uploaded By PENDUDESI
  • Downloads 79
  • Last checked 28 minutes ago
  • Date uploaded 1 hour ago
  • Seeders 5
  • Leechers 26

Paltan

War

A war drama based on the Indo-China War of 1962, JP Dutta's "PALTAN" focuses on the hard-hitting truth of India's relations with China, and how it is important to acknowledge that China, an enormous power in world politics, poses to be a huge threat to India.

Infohash : A3BC7C13FC309460A231A5EEB6F7438BE3BC2216

http://www.gopisahi.pw/

Format : Matroska
Format version : Version 4 / Version 2
File size : 735 MiB
Duration : 2 h 27 min
Overall bit rate : 696 kb/s
Movie name : Paltan 2018 GOPISAHI

Video
Format : AVC
Format/Info : Advanced Video Codec
Codec ID : V_MPEG4/ISO/AVC
Duration : 2 h 27 min
Bit rate : 599 kb/s
Width : 1 280 pixels
Height : 544 pixels
Display aspect ratio : 2.35:1
Frame rate mode : Constant
Frame rate : 25.000 FPS
Color space : YUV
Chroma subsampling : 4:2:0
Bit depth : 8 bits
Scan type : Progressive
Bits/(Pixel*Frame) : 0.034
Stream size : 632 MiB (86%)
Title : GOPISAHI
Writing library : x264 core 155 r2901 7d0ff22

Audio
Format : AAC
Duration : 2 h 27 min
Bit rate : 96.0 kb/s
Channel(s) : 2 channels
Channel positions : Front: L R
Sampling rate : 48.0 kHz
Frame rate : 46.875 FPS (1024 SPF)
Compression mode : Lossy
Delay relative to video : -21 ms
Stream size : 101 MiB (14%)
Title : GOPISAHI
Language : Hindi


Files:

  • Paltan 2018 x264 720p HD Esub Hindi GOPISAHI.mkv (735.4 MB)

There are currently no comments. Feel free to leave one :)

Code:

  • udp://tracker.coppersurfer.tk:6969/announce
  • udp://tracker.pirateparty.gr:6969/announce
  • udp://shadowshq.yi.org:6969/announce
  • udp://eddie4.nl:6969/announce
  • udp://tracker.leechers-paradise.org:6969/announce
  • udp://tracker.opentrackr.org:1337/announce
  • udp://p4p.arenabg.ch:1337/announce
  • udp://p4p.arenabg.com:1337/announce
  • udp://9.rarbg.me:2720/announce
  • udp://9.rarbg.to:2780/announce
  • udp://tracker.coppersurfer.tk:80/announce
  • udp://tracker.vanitycore.co:6969/announce
  • udp://public.popcorn-tracker.org:6969/announce
  • udp://tracker.opentrackr.org:1337/announce
  • udp://tracker.zer0day.to:1337/announce
  • udp://thetracker.org:80/announce
  • udp://explodie.org:6969/announce
  • udp://tracker.internetwarriors.net:1337/announce
SitemapThe Handmaid's Tale | Samjho na5.56 | Badbakht Episode 08 - on ARY Zindagi in High Quality 17th April 2018 Watch movie | The X-Files S11E10 | Blood of the Earth (Soulwood #1)