2 Stück Anhängerrad Komplettrad Rad 4.50-10C 76M Lochkreis 4x100 Anhänger Reifen | Schademotors | Huawei P10 Lite Was-lx1a - 32 Gb - Pearl White Ohne Simlock Smartphone (single …

Mission: Impossible – Fallout (2018) 1080p WEB-DL x265 HEVC - ENX...

  • Category Movies
  • Type HEVC/x265
  • Language English
  • Total size 1.8 GB
  • Uploaded By ENX265
  • Downloads 327
  • Last checked 6 minutes ago
  • Date uploaded 22 hours ago
  • Seeders 24
  • Leechers 22

Mission: Impossible - Fallout

AdventureActionThriller

When an IMF mission ends badly, the world is faced with dire consequences. As Ethan Hunt takes it upon himself to fulfil his original briefing, the CIA begin to question his loyalty and his motives. The IMF team find themselves in a race against time, hunted by assassins while trying to prevent a global catastrophe.

Infohash : D770E2811320F7BD380AA55E48DC5BB088A3FEA0

Please post your requests at

ENX265.Com




CHECK SAMPLE
http://enx265.com/download-mission-impossible-fallout-2018-1080p-10bit-web-dl-6ch-x265-hevc-esub/

Quote:

General

Format : Matroska
Format version : Version 4
File size : 1.84 GiB
Duration : 2 h 27 min
Overall bit rate : 1 786 kb/s
Movie name : Encoded By GunneR [Enx265.com]
Encoded date : UTC 2018-11-07 04:17:02
Writing application : mkvmerge v22.0.0 ('At The End Of The World') 64-bit
Writing library : libebml v1.3.5 + libmatroska v1.4.8
Cover : Yes
Attachments : cover.jpg / cover_land.jpg / small_cover.jpg / small_cover_land.jpg

Video
ID : 1
Format : HEVC
Format/Info : High Efficiency Video Coding
Format profile : Main [email protected]@Main
Codec ID : V_MPEGH/ISO/HEVC
Duration : 2 h 27 min
Bit rate : 1 330 kb/s
Width : 1 920 pixels
Height : 1 008 pixels
Display aspect ratio : 1.905
Frame rate mode : Constant
Frame rate : 23.976 (24000/1001) FPS
Color space : YUV
Chroma subsampling : 4:2:0
Bit depth : 10 bits
Bits/(Pixel*Frame) : 0.029
Stream size : 1.37 GiB (74%)
Writing library : x265 2.5+14-2718cb5dd67f:[Windows][GCC 7.1.0][64 bit] 10bit
Default : Yes
Forced : No

Audio
ID : 2
Format : AAC LC
Format/Info : Advanced Audio Codec Low Complexity
Codec ID : A_AAC-2
Duration : 2 h 27 min
Bit rate : 454 kb/s
Channel(s) : 6 channels
Channel layout : C L R Ls Rs LFE
Sampling rate : 48.0 kHz
Frame rate : 46.875 FPS (1024 SPF)
Compression mode : Lossy
Delay relative to video : 9 ms
Stream size : 479 MiB (25%)
Language : English
Default : No
Forced : No

Text
ID : 3
Format : UTF-8
Codec ID : S_TEXT/UTF8
Codec ID/Info : UTF-8 Plain Text
Duration : 2 h 19 min
Bit rate : 47 b/s
Count of elements : 1549
Stream size : 48.5 KiB (0%)
Language : English
Default : Yes
Forced : No

Files:

[Enx265.com].Mission.Impossible.Fallout.2018.1080p.10bit.WEB-DL.6CH.x265.HEVC
  • [Enx265.com].Mission.Impossible.Fallout.2018.1080p.10bit.WEB-DL.6CH.x265.HEVC.mkv (1.8 GB)
  • Enx265.com.txt (0.0 KB)
  • X265 HEVC ENCODE.txt (0.1 KB)

There are currently no comments. Feel free to leave one :)

Code:

  • udp://tracker.coppersurfer.tk:6969/announce