HD Haunted 3: A Time To Die (2016) | Programmaboekje Grand Prix 500cc Motocross 1981 Lichtenvoorde (NL) | Азиатские фильмы (HD Video)

Alone We Fight 2018 Movies 720p HDRip x264 5.1 with Sample ☻rDX☻...

  • Category Movies
  • Type HD
  • Language English
  • Total size 844.7 MB
  • Uploaded By nehalpuja
  • Downloads 188
  • Last checked 1 hour ago
  • Date uploaded 20 hours ago
  • Seeders 31
  • Leechers 53

Alone We Fight

War

Facing mounting odds, a small but determined band of American soldiers venture into dangerous enemy territory on a mission to stop an advancing German unit from breaking through the Allied line.

Infohash : 4EA4479C440CC923E6099681135B7D5C3173F864

Alone We Fight 2018 Movies 720p HDRip x264 5.1 with Sample ☻rDX☻
===============================================================================================

SCREEN SHOTS:



or

http://iphonehosting.eu/2018/11/4g/1.html

File size : 836 MiB
Duration : 1 h 31 min
Overall bit rate : 1 275 kb/s
Movie name : Alone We Fight 2018 Movies 720p HDRip x264 5.1 ☻rDX☻

Video
ID : 2
Format : AVC
Format/Info : Advanced Video Codec
Format profile : [email protected]
Format settings, CABAC : Yes
Format settings, ReFrames : 5 frames
Codec ID : V_MPEG4/ISO/AVC
Duration : 1 h 31 min
Bit rate : 1 082 kb/s
Width : 1 280 pixels
Height : 640 pixels
Display aspect ratio : 2.005
Original display aspect ratio : 2.004
Frame rate mode : Constant
Frame rate : 23.976 (24000/1001) FPS
Color space : YUV
Chroma subsampling : 4:2:0
Bit depth : 8 bits
Scan type : Progressive
Bits/(Pixel*Frame) : 0.055
Stream size : 694 MiB (83%)
Title : ☻rDX☻
Writing library : x264

Audio
ID : 1
Format : AC-3
Format/Info : Audio Coding 3
Mode extension : CM (complete main)
Format settings, Endianness : Big
Codec ID : A_AC3
Duration : 1 h 31 min
Bit rate mode : Constant
Bit rate : 192 kb/s
Channel(s) : 6 channels
Channel positions : Front: L C R, Side: L R, LFE
Sampling rate : 48.0 kHz
Frame rate : 31.250 FPS (1536 spf)
Bit depth : 16 bits
Compression mode : Lossy
Delay relative to video : -12 ms
Stream size : 126 MiB (15%)
Title : ☻rDX☻
Default : Yes
Forced : No

http://www.imdb.com/title/tt8358682

Files:

Alone We Fight 2018 Movies 720p HDRip x264 5.1 with Sample ☻rDX☻
  • Sample ~ Alone We Fight 2018 Movies 720p HDRip x264 5.1 ☻rDX☻.mkv (8.6 MB)
  • Alone We Fight 2018 Movies 720p HDRip x264 5.1 ☻rDX☻.mkv (836.1 MB)

There are currently no comments. Feel free to leave one :)

Code:

  • udp://tracker.coppersurfer.tk:6969/announce
  • udp://tracker.leechers-paradise.org:6969/announce
  • udp://tracker.pirateparty.gr:6969/announce
  • udp://eddie4.nl:6969/announce
  • udp://tracker.zer0day.to:1337/announce
  • udp://9.rarbg.me:2710/announce
  • udp://9.rarbg.to:2710/announce
  • udp://public.popcorn-tracker.org:6969/announce
  • udp://p4p.arenabg.ch:1337/announce
  • udp://tracker.vanitycore.co:6969/announce
  • udp://ipv4.tracker.harry.lu:80/announce
  • udp://tracker.opentrackr.org:1337/announce
  • udp://p4p.arenabg.com:1337/announce
  • udp://shadowshq.yi.org:6969/announce