Pandem Kodi 2 (2018) Telugu Movie Online Download | Lucy OllierDreaming of You - Single Alternative, Pop, Brit Pop | PAKTO Secreto - 1

Thaanaa Serndha Koottam (2018) UNCUT 720p HDRip x264 [Dual Audio]...

  • Category Movies
  • Type Dubs/Dual Audio
  • Language Hindi
  • Total size 1.5 GB
  • Uploaded By DESIRE123
  • Downloads 11643
  • Last checked 13 hours ago
  • Date uploaded 3 days ago
  • Seeders 110
  • Leechers 60

Thaanaa Serndha Koottam

Action

Angered by the corruption that stopped him from becoming a CBI officer, a young man forms a gang who pose as CBI officers and raids the corrupt.

Infohash : 9F7CF9F90675D407A69E49482DF401FE63179F15

Thaanaa Serndha Koottam (2018) UNCUT 720p HDRip x264 [Dual Audio] [Hindi DD 2.0 - Tamil 2.0] - 1.5 GB


EXUSIVE UPLOAD BY DesireMoVies.Win


Surya Ki Gang


POSTER



INFO


General
Format                         : Matroska
Format version                 : Version 4
File size                      : 1.52 GiB
Duration                       : 2 h 14 min
Overall bit rate               : 1 608 kb/s

Video
ID                             : 1
Format                         : AVC
Format/Info                    : Advanced Video Codec
Format profile                 : [email protected]
Format settings                : CABAC / 4 Ref Frames
Format settings, CABAC         : Yes
Format settings, ReFrames      : 4 frames
Format settings, GOP           : M=4, N=24
Codec ID                       : V_MPEG4/ISO/AVC
Duration                       : 2 h 14 min
Bit rate                       : 1 350 kb/s
Width                          : 1 280 pixels
Height                         : 544 pixels
Display aspect ratio           : 2.35:1
Frame rate mode                : Constant
Frame rate                     : 23.976 (24000/1001) FPS
Color space                    : YUV
Chroma subsampling             : 4:2:0
Bit depth                      : 8 bits
Default                        : Yes
Forced                         : No
Color range                    : Limited
Color primaries                : BT.709
Transfer characteristics       : BT.709
Matrix coefficients            : BT.709

Audio #1
ID                             : 2
Format                         : AC-3
Format/Info                    : Audio Coding 3
Commercial name                : Dolby Digital
Codec ID                       : A_AC3
Duration                       : 2 h 14 min
Bit rate mode                  : Constant
Bit rate                       : 192 kb/s
Channel(s)                     : 2 channels
Channel layout                 : L R
Sampling rate                  : 48.0 kHz
Frame rate                     : 31.250 FPS (1536 SPF)
Bit depth                      : 16 bits
Compression mode               : Lossy
Delay relative to video        : -5 ms
Stream size                    : 185 MiB (12%)
Title                          : [email protected]
Language                       : Hindi
Service kind                   : Complete Main
Default                        : Yes
Forced                         : Yes

Audio #2
ID                             : 3
Format                         : AAC LC SBR
Format/Info                    : Advanced Audio Codec Low Complexity with Spectral Band Replication
Commercial name                : HE-AAC
Format settings                : NBC
Codec ID                       : A_AAC-5
Duration                       : 2 h 14 min
Bit rate                       : 64.0 kb/s
Channel(s)                     : 2 channels
Channel layout                 : L R
Sampling rate                  : 48.0 kHz
Frame rate                     : 23.438 FPS (2048 SPF)
Compression mode               : Lossy
Delay relative to video        : -105 ms
Stream size                    : 61.8 MiB (4%)
Title                          : [email protected]
Language                       : Tamil
Default                        : No
Forced                         : No


SCREENSHOT



Keep Visit DesireMoVies.trade For More Exusive MoVies


Files:

DesireMovies.Win Thaanaa Serndha Koottam (2018) UNCUT 720p HDRip x264 [Dual Audio]
  • SAMPLE.mkv (11.5 MB)
  • Thaanaa Serndha Koottam (2018) UNCUT 720p HDRip x264 [Dual Audio] [Hindi DD 2.0 - Tamil 2.0].mkv (1.5 GB)

Comments

Code:

  • udp://tracker.coppersurfer.tk:6969/announce
  • udp://tracker.leechers-paradise.org:6969/announce
  • udp://tracker.pirateparty.gr:6969/announce
  • udp://eddie4.nl:6969/announce
  • udp://tracker.zer0day.to:1337/announce
  • udp://9.rarbg.me:2710/announce
  • udp://9.rarbg.to:2710/announce
  • udp://public.popcorn-tracker.org:6969/announce
  • udp://p4p.arenabg.ch:1337/announce
  • udp://tracker.opentrackr.org:1337/announce
  • http://ipv4.tracker.harry.lu:80/announce
  • http://open.kickasstracker.com/announce
  • http://tracker.devil-torrents.pl/announce
  • http://t.nyaatracker.com:80/announce
  • http://retracker.mgts.by:80/announce
  • udp://tracker.internetwarriors.net:1337/announce
  • udp://shadowshq.yi.org:6969/announce
  • udp://explodie.org:6969/announce
  • udp://tracker.tiny-vps.com:6969/announce
  • udp://inferno.demonoid.pw:3391/announce
  • udp://peerfect.org:6969/announce
  • udp://tracker.vanitycore.co:6969/announce
  • udp://open.stealth.si:80/announ
  • udp://p4p.arenabg.com:1337/announce
  • udp://tracker.zer0day.to:1337/announce
  • udp://tracker.coppersurfer.tk:80/announce
  • udp://coppersurfer.tk:6969/announce
  • udp://mgtracker.org:6969/announce