Almost Christmas 2016 x264 720p Esub BluRay Dual Audio English Hi...

  • Category Movies
  • Type Dubs/Dual Audio
  • Language English
  • Total size 629.1 MB
  • Uploaded By PENDUDESI
  • Downloads 14
  • Last checked 48 years ago
  • Date uploaded 50 minutes ago
  • Seeders 0
  • Leechers 0

Almost Christmas

Comedy

An dysfunctional family gathers together for their first Christmas since their mom died.

Infohash : 9514491DE48BED05FA35F14B130ACB2877942B41

http://www.gopisahi.pw/

Format : Matroska
Format version : Version 4 / Version 2
File size : 629 MiB
Duration : 1 h 50 min
Overall bit rate : 793 kb/s
Movie name : Almost Christmas 2016 GOPISAHI

Video
Format : AVC
Format/Info : Advanced Video Codec
Codec ID : V_MPEG4/ISO/AVC
Duration : 1 h 50 min
Bit rate : 599 kb/s
Width : 1 280 pixels
Height : 536 pixels
Display aspect ratio : 2.40:1
Frame rate mode : Constant
Frame rate : 23.976 (24000/1001) FPS
Color space : YUV
Chroma subsampling : 4:2:0
Bit depth : 8 bits
Scan type : Progressive
Bits/(Pixel*Frame) : 0.036
Stream size : 474 MiB (75%)
Title : GOPISAHI
Writing library : x264 core 155 r2901 7d0ff22

Audio #1
ormat : AAC
Duration : 1 h 50 min
Bit rate : 96.0 kb/s
Channel(s) : 2 channels
Channel positions : Front: L R
Sampling rate : 48.0 kHz
Frame rate : 46.875 FPS (1024 SPF)
Compression mode : Lossy
Delay relative to video : -21 ms
Stream size : 76.2 MiB (12%)
Title : GOPISAHI
Language : Hindi

Audio #2
Format : AAC
Format/Info : Advanced Audio Codec
Duration : 1 h 50 min
Bit rate : 96.0 kb/s
Channel(s) : 2 channels
Channel positions : Front: L R
Sampling rate : 48.0 kHz
Frame rate : 46.875 FPS (1024 SPF)
Compression mode : Lossy
Delay relative to video : 31 ms
Stream size : 76.2 MiB (12%)
Title : GOPISAHI
Language : English

Text
Language : English


Files:

  • Almost Christmas 2016 x264 720p Esub BluRay Dual Audio English Hindi GOPISAHI.mkv (629.1 MB)

There are currently no comments. Feel free to leave one :)

Code:

  • udp://tracker.coppersurfer.tk:6969/announce
  • udp://tracker.pirateparty.gr:6969/announce
  • udp://shadowshq.yi.org:6969/announce
  • udp://eddie4.nl:6969/announce
  • udp://tracker.leechers-paradise.org:6969/announce
  • udp://tracker.opentrackr.org:1337/announce
  • udp://p4p.arenabg.ch:1337/announce
  • udp://p4p.arenabg.com:1337/announce
  • udp://9.rarbg.me:2720/announce
  • udp://9.rarbg.to:2780/announce
  • udp://tracker.coppersurfer.tk:80/announce
  • udp://tracker.vanitycore.co:6969/announce
  • udp://public.popcorn-tracker.org:6969/announce
  • udp://tracker.opentrackr.org:1337/announce
  • udp://tracker.zer0day.to:1337/announce
  • udp://thetracker.org:80/announce
  • udp://explodie.org:6969/announce
  • udp://tracker.internetwarriors.net:1337/announce
Sitemap100 Steckkarten C6 NEU mit 4 Streifen und Folie (Kobra VF4/Lindner 869) | ウェディング 小物 | Asian Movie Bateadores | Le Fabuleux Destin D’amélie Poulain | The Walking Dead S09E08