HD The Babysitter (2017) | Elite Starts 5th Oct 9:00am On Netflix NEW! | [Brazilian-Transsexuals] Kalliny Nomura (06 11 2018) rq mp4

Bharat Ane Nenu (2018) UNCUT 720p HDRip x264 Esub [Dual Audio] [H...

  • Category Movies
  • Type Dubs/Dual Audio
  • Language Hindi
  • Total size 1.6 GB
  • Uploaded By DESIRE123
  • Downloads 16011
  • Last checked 2 weeks ago
  • Date uploaded 2 weeks ago
  • Seeders 140
  • Leechers 95

Bharat Ane Nenu

RomanceActionThriller

Bharat Ane Nenu is an upcoming Indian political thriller film directed by Koratala Siva, featuring Mahesh Babu and Kiara Advani in the lead roles.

Infohash : 89E181B6BC543ADD7E06813694843CBD0A90A13F

Bharat Ane Nenu (2018) UNCUT 720p HDRip x264 Esub [Dual Audio] [Hindi 2.0 - Telugu 2.0]


EXUSIVE UPLOAD BY DesireMoVies.Win


Bharat Ane Nenu


POSTER



INFO


General
Format : Matroska
Format version : Version 4
File size : 1.62 GiB
Duration : 2 h 48 min
Overall bit rate : 1 375 kb/s

Video
ID : 1
Format : AVC
Format/Info : Advanced Video Codec
Format profile : [email protected]
Format settings : CABAC / 4 Ref Frames
Format settings, CABAC : Yes
Format settings, ReFrames : 4 frames
Codec ID : V_MPEG4/ISO/AVC
Duration : 2 h 48 min
Bit rate : 1 052 kb/s
Width : 1 280 pixels
Height : 544 pixels
Display aspect ratio : 2.35:1
Frame rate mode : Constant
Frame rate : 23.976 (23976/1000) FPS
Color space : YUV
Chroma subsampling : 4:2:0
Bit depth : 8 bits
Default : Yes
Forced : No

Audio #1
ID : 2
Format : MPEG Audio
Format version : Version 1
Format profile : Layer 3
Format settings : Joint stereo / MS Stereo
Codec ID : A_MPEG/L3
Codec ID/Hint : MP3
Duration : 2 h 48 min
Bit rate mode : Constant
Bit rate : 192 kb/s
Channel(s) : 2 channels
Sampling rate : 44.1 kHz
Frame rate : 38.281 FPS (1152 SPF)
Compression mode : Lossy
Stream size : 232 MiB (14%)
Title : [email protected]
Writing library : LAME3.98.2
Language : Hindi
Default : Yes
Forced : Yes

Audio #2
ID : 3
Format : AAC LC
Format/Info : Advanced Audio Codec Low Complexity
Codec ID : A_AAC-2
Duration : 2 h 48 min
Bit rate : 128 kb/s
Channel(s) : 2 channels
Channel layout : L R
Sampling rate : 44.1 kHz
Frame rate : 43.066 FPS (1024 SPF)
Compression mode : Lossy
Stream size : 154 MiB (9%)
Title : [email protected]
Language : Telugu
Default : No
Forced : No

Text
ID : 4
Format : UTF-8
Codec ID : S_TEXT/UTF8
Codec ID/Info : UTF-8 Plain Text
Duration : 2 h 47 min
Bit rate : 73 b/s
Count of elements : 2253
Stream size : 90.7 KiB (0%)
Title : [email protected]
Language : English
Default : Yes
Forced : No


SCREENSHOT



Keep Visit DesireMoVies.trade For More Exusive MoVies


Files:

  • Bharat Ane Nenu (2018) UNCUT 720p HDRip x264 Esub [Dual Audio] [Hindi 2.0 - Telugu 2.0].mkv (1.6 GB)

There are currently no comments. Feel free to leave one :)

Code:

  • udp://tracker.coppersurfer.tk:6969/announce
  • udp://tracker.leechers-paradise.org:6969/announce
  • udp://tracker.pirateparty.gr:6969/announce
  • udp://eddie4.nl:6969/announce
  • udp://tracker.zer0day.to:1337/announce
  • udp://9.rarbg.me:2710/announce
  • udp://9.rarbg.to:2710/announce
  • udp://public.popcorn-tracker.org:6969/announce
  • udp://p4p.arenabg.ch:1337/announce
  • udp://tracker.opentrackr.org:1337/announce
  • http://ipv4.tracker.harry.lu:80/announce
  • http://open.kickasstracker.com/announce
  • http://tracker.devil-torrents.pl/announce
  • http://t.nyaatracker.com:80/announce
  • http://retracker.mgts.by:80/announce
  • udp://tracker.internetwarriors.net:1337/announce
  • udp://shadowshq.yi.org:6969/announce
  • udp://explodie.org:6969/announce
  • udp://tracker.tiny-vps.com:6969/announce
  • udp://inferno.demonoid.pw:3391/announce
  • udp://peerfect.org:6969/announce
  • udp://tracker.vanitycore.co:6969/announce
  • udp://open.stealth.si:80/announ
  • udp://p4p.arenabg.com:1337/announce
  • udp://tracker.zer0day.to:1337/announce
  • udp://tracker.coppersurfer.tk:80/announce
  • udp://coppersurfer.tk:6969/announce
  • udp://mgtracker.org:6969/announce