Bikini Warriors BD720p Episodes 1-16 English Subbed (HEVC_10bit_S...

  • Category Anime
  • Type Subbed
  • Language Japanese
  • Total size 580.8 MB
  • Uploaded By smoodflamez
  • Downloads 20
  • Last checked 26 minutes ago
  • Date uploaded 4 hours ago
  • Seeders 22
  • Leechers 11

Infohash : B61465971E089E8BDE17B39809F96355D4F20716

Title
Bikini Warriors

Source
Kametsu
TerribleSubs
Tsundere

Storyline
The show is a sequence of 12 stories about the adventures of four girls. The action takes part in a fantasy world filled with monsters and bad magicians

Details
Official Sites: Fan site | Official Website
Country: Japan
Language: Japanese
Release Date: 7 July 2015 (Japan) See more ยป
Also Known As: Bikini Warriors

Video
ID : 1
Format : HEVC
Format/Info : High Efficiency Video Coding
Format profile : Main [email protected]@Main
Codec ID : V_MPEGH/ISO/HEVC
Duration : 4 min 1 s
Width : 1 280 pixels
Height : 720 pixels
Display aspect ratio : 16:9
Frame rate mode : Constant
Frame rate : 23.976 (24000/1001) FPS
Color space : YUV
Chroma subsampling : 4:2:0
Bit depth : 10 bits

Audio
ID : 2
Format : Opus
Codec ID : A_OPUS
Duration : 4 min 1 s
Bit rate : 81.1 kb/s
Channel(s) : 2 channels
Channel layout : L R
Sampling rate : 96.0 kHz
Frame rate : 50.002 FPS (1920 SPF)
Compression mode : Lossy
Stream size : 2.34 MiB (9%)
Title : Japanese 2.0 AAC
Language : Japanese
Default : Yes
Forced : No

Text
ID : 3
Format : ASS
Codec ID : S_TEXT/ASS
Codec ID/Info : Advanced Sub Station Alpha
Duration : 3 min 26 s
Bit rate : 624 b/s
Count of elements : 161
Compression mode : Lossless
Stream size : 15.8 KiB (0%)
Language : Japanese
Default : No
Forced : No

Screenshots

Files:

Bikini Warriors_BD720p_(HEVC_10bit_SmoodFlamez)
  • Bikini Warriors - 01 .mkv (48.2 MB)
  • Bikini Warriors - 02 .mkv (26.7 MB)
  • Bikini Warriors - 03 .mkv (78.2 MB)
  • Bikini Warriors - 04 .mkv (31.4 MB)
  • Bikini Warriors - 05 .mkv (28.3 MB)
  • Bikini Warriors - 06 .mkv (44.0 MB)
  • Bikini Warriors - 07 .mkv (29.8 MB)
  • Bikini Warriors - 08 .mkv (31.2 MB)
  • Bikini Warriors - 09 .mkv (29.8 MB)
  • Bikini Warriors - 10 .mkv (29.2 MB)
  • Bikini Warriors - 11 .mkv (32.8 MB)
  • Bikini Warriors - 12 .mkv (28.5 MB)
  • Bikini Warriors - 13 .mkv (30.6 MB)
  • Bikini Warriors - 14 .mkv (18.9 MB)
  • Bikini Warriors - 15.mkv (24.1 MB)
  • Bikini Warriors - 16 .mkv (41.0 MB)
  • Bikini Warriors - NCED .mkv (6.7 MB)
  • Posters
    • 1555109_English_KeyArt-OfficialVideoImage_186691e4-a2a2-e811-8175-020165574d09.jpg (518.6 KB)
    • 2018-10-05_092323.png (2.3 MB)
    • 2018-10-05_092341.png (2.2 MB)
    • 2018-10-05_092437.png (2.1 MB)
    • 2018-10-05_092451.png (2.1 MB)
    • 2018-10-05_092504.png (2.2 MB)
    • afbbe64996307b502e5dd76e9fdd2b5d.jpg (141.7 KB)
    • bikini.jpg (632.5 KB)
    • maxresdefault (1).jpg (89.9 KB)
    • maxresdefault.jpg (130.7 KB)
    Screenshots
    • 2018-10-05_141526.png (1.9 MB)
    • 2018-10-05_141715.png (1.8 MB)
    • 2018-10-05_141725.png (1.6 MB)
    • 2018-10-05_141735.png (2.0 MB)
    • 2018-10-05_141746.png (1.7 MB)

There are currently no comments. Feel free to leave one :)

Code:

  • udp://tracker.openbittorrent.com:80/announce
  • udp://tracker.coppersurfer.tk:6969/announce
  • udp://tracker.tiny-vps.com:6969/announce
  • udp://tracker.opentrackr.org:1337/announce
  • udp://public.popcorn-tracker.org:6969/announce
  • udp://tracker.pirateparty.gr:6969/announce
  • udp://tracker.vanitycore.co:6969/announce
  • udp://inferno.demonoid.pw:3391/announce
  • http://nyaa.tracker.wf:7777/announce
  • udp://tracker.leechers-paradise.org:6969/announce
  • udp://tracker.coppersurfer.tk:6969/announce
  • udp://tracker.opentrackr.org:1337/announce
  • udp://tracker.zer0day.to:1337/announce
  • udp://eddie4.nl:6969/announce
SitemapBitter Competition: The Holland Sweetener Company Versus Nutrasweet | Adventure | Cooper Barrett's Guide To Surviving Life Carmen Soup | Watch Movie | AMA Citation Guide