Swimming with Men 2018 Movies BRRip x264 AAC with Sample ☻rDX☻...

  • Category Movies
  • Type h.264/x264
  • Language English
  • Total size 705.5 MB
  • Uploaded By nehalpuja
  • Downloads 57
  • Last checked 1 hour ago
  • Date uploaded 1 day ago
  • Seeders 16
  • Leechers 8

Infohash : 10509CE44A2BE066B2BF724B4A14A07DB35B745C

Swimming with Men 2018 Movies BRRip x264 AAC with Sample ☻rDX☻
===============================================================================================

SCREEN SHOTS:



or

http://iphonehosting.eu/2018/9/a/dubai/1.html

File size : 693 MiB
Duration : 1 h 37 min
Overall bit rate mode : Constant
Overall bit rate : 999 kb/s
Movie name : Swimming with Men 2018 Movies BRRip x264 AAC ☻rDX☻

Video
ID : 2
Format : AVC
Format/Info : Advanced Video Codec
Format profile : [email protected]
Format settings, CABAC : Yes
Format settings, ReFrames : 2 frames
Format settings, GOP : M=1, N=12
Codec ID : V_MPEG4/ISO/AVC
Duration : 1 h 37 min
Bit rate mode : Constant
Bit rate : 936 kb/s
Width : 720 pixels
Height : 304 pixels
Display aspect ratio : 2.35:1
Frame rate mode : Constant
Frame rate : 24.000 FPS
Color space : YUV
Chroma subsampling : 4:2:0
Bit depth : 8 bits
Scan type : Progressive
Bits/(Pixel*Frame) : 0.178
Stream size : 635 MiB (92%)
Title : ☻rDX☻
Default : Yes
Forced : No

Audio
ID : 1
Format : MPEG Audio
Format version : Version 1
Format profile : Layer 3
Mode : Joint stereo
Codec ID : A_MPEG/L3
Codec ID/Hint : MP3
Duration : 1 h 37 min
Bit rate mode : Constant
Bit rate : 64.0 kb/s
Channel(s) : 2 channels
Sampling rate : 44.1 kHz
Compression mode : Lossy
Stream size : 44.4 MiB (6%)
Title : ☻rDX☻
Default : Yes
Forced : No

http://www.imdb.com/title/tt6532374/

http://i.postimg.cc/4N4kj31B/image.jpg[/url]

Files:

Swimming with Men 2018 Movies BRRip x264 AAC with Sample ☻rDX☻
  • Sample ~ Swimming with Men 2018 Movies BRRip x264 AAC ☻rDX☻.mkv (12.0 MB)
  • Swimming with Men 2018 Movies BRRip x264 AAC ☻rDX☻.mkv (693.5 MB)

There are currently no comments. Feel free to leave one :)

Code:

  • udp://tracker.coppersurfer.tk:6969/announce
  • udp://tracker.leechers-paradise.org:6969/announce
  • udp://tracker.pirateparty.gr:6969/announce
  • udp://eddie4.nl:6969/announce
  • udp://tracker.zer0day.to:1337/announce
  • udp://9.rarbg.me:2710/announce
  • udp://9.rarbg.to:2710/announce
  • udp://public.popcorn-tracker.org:6969/announce
  • udp://p4p.arenabg.ch:1337/announce
  • udp://tracker.vanitycore.co:6969/announce
  • udp://ipv4.tracker.harry.lu:80/announce
  • udp://tracker.opentrackr.org:1337/announce
  • udp://p4p.arenabg.com:1337/announce
  • udp://shadowshq.yi.org:6969/announce
SitemapSusie Porter | 1x07 SEAL Team | IRYU-Team Medical Dragon S04E06 WEB x264-WaLMaRT [eztv] Jurassic Bark | the last ship | 24.11.1802:35 Uhr Die Ultimative Chartshow (Die Erfolgreichsten Hits 2018)*Alternatives Scene-Release* Pop256 kbit/s 0 / 013.548 Hits VID P2P DDL 0 Kommentare