Dhadak (2018) Hindi Proper HDRip x264 AAC by Full4movies

  • Category Movies
  • Type HD
  • Language Hindi
  • Total size 713.1 MB
  • Uploaded By shmasti
  • Downloads 50
  • Last checked 9 minutes ago
  • Date uploaded 1 day ago
  • Seeders 3
  • Leechers 0

Infohash : 8DD9FADB98354362745314D5CEAC69BDFFB111ED



General
Complete name : Dhadak (2018) Hindi Proper HDRip x264 AAC by Full4movies.mkv
Format : Matroska
Format version : Version 4 / Version 2
File size : 713 MiB
Duration : 2 h 17 min
Overall bit rate : 725 kb/s
Movie name : www.Full4movies.co
Encoded date : UTC 2018-10-03 20:12:22
Writing application : mkvmerge v8.1.0 ('Psychedelic Postcard') 32bit
Writing library : libebml v1.3.1 + libmatroska v1.4.2

Video
ID : 1
Format : AVC
Format/Info : Advanced Video Codec
Format profile : [email protected]
Format settings, CABAC : Yes
Format settings, RefFrames : 4 frames
Codec ID : V_MPEG4/ISO/AVC
Duration : 2 h 17 min
Bit rate : 603 kb/s
Width : 720 pixels
Height : 304 pixels
Display aspect ratio : 2.35:1
Frame rate mode : Constant
Frame rate : 23.976 (23976/1000) FPS
Color space : YUV
Chroma subsampling : 4:2:0
Bit depth : 8 bits
Scan type : Progressive
Bits/(Pixel*Frame) : 0.115
Stream size : 586 MiB (82%)
Writing library : x264 core 155 r2901 7d0ff22
Default : Yes
Forced : No
Color range : Limited
Color primaries : BT.709
Transfer characteristics : BT.709
Matrix coefficients : BT.709

Audio
ID : 2
Format : AAC
Format/Info : Advanced Audio Codec
Format profile : LC
Codec ID : A_AAC
Duration : 2 h 17 min
Bit rate : 127 kb/s
Channel(s) : 2 channels
Channel positions : Front: L R
Sampling rate : 44.1 kHz
Frame rate : 43.066 FPS (1024 SPF)
Compression mode : Lossy
Delay relative to video : -23 ms
Stream size : 125 MiB (17%)
Language : Hindi
Default : Yes
Forced : No

Screen Shoots

Files:

  • Dhadak (2018) Hindi Proper HDRip x264 AAC by Full4movies.mkv (713.1 MB)

There are currently no comments. Feel free to leave one :)

Code:

  • udp://tracker.coppersurfer.tk:6969/announce
  • udp://tracker.opentrackr.org:1337/announce
  • udp://9.rarbg.me:2710/announce
  • udp://tracker.torrent.eu.org:451/announce
  • udp://open.stealth.si:80/announce
  • udp://public.popcorn-tracker.org:6969/announce
  • udp://p4p.arenabg.ch:1337/announce
  • udp://tracker.zer0day.to:1337/announce
  • udp://tracker.pirateparty.gr:6969/announce
  • udp://tracker.leechers-paradise.org:6969/announce
  • udp://tracker.tiny-vps.com:6969/announce
  • udp://bt.firebit.co.uk:6969/announce
  • udp://inferno.demonoid.pw:3397/announce
  • udp://shadowshq.yi.org:6969/announce
  • udp://9.rarbg.to:2780/announce
Sitemap16.11.1805:41 Uhr Die Sims 4 - Werde ber├╝hmt*inklusive deutschem Untertitel* Simulation0 / 01.846 Hits VID P2P DDL 3 Kommentare | Der.Hauptmann.2017.German.AAC.1080p.WEBRip.x264-PS | eBay-Branded Padded Airjacket With Blue Print 6.5 x 8.75 Dexter (2006-2010) | Iron Fist | Lethal.Weapon.S03E08.WEB.x264-TBS[ettv]