The Apprentice UK S14E01 Malta (1280x720p HD, 50fps, soft Eng sub...

  • Category TV
  • Type HD
  • Language English
  • Total size 2.2 GB
  • Uploaded By ElsonRoa
  • Downloads 11
  • Last checked 24 minutes ago
  • Date uploaded 2 days ago
  • Seeders 2
  • Leechers 0
60%
January 5, 2015, 2:00 am

The Apprentice

Donald Trump is back for a brand new season of "The Celebrity Apprentice." This is the seventh installment of "The Celebrity Apprentice" and the 14th season of "The Apprentice" series. The celebrities create and sell pies for charity; members of the women's team complain about their project manager.

Infohash : 617893039679801542F02AFD2E6A1A483FA631E1

The Apprentice S14E01 Malta (1280x720p HD, 50fps, soft Eng subs)

The search for Lord Sugar's next business partner begins, and this year the challenges are bigger and better than ever. Lord Sugar has already invested his own money in eight businesses, and he is now ready to take a gamble on a brand new venture. The 16 hopeful candidates will be whittled down over the next 12 weeks until only one remains. To demonstrate just how much is at stake, Lord Sugar summons the aspiring entrepreneurs to his boardroom, where he kicks off proceedings with something he has never done before.

Under the scrutiny of Karren Brady and Claude Littner, the candidates are tasked with tackling their first challenge abroad. The teams fly to Valletta in Malta, for a day-long shopping spree. The challenge is to bag nine Maltese items for the lowest possible prices before reuniting at the airport at 7pm.

One team quickly hits the road, but they are clearly on the wrong track. On the other team, fiery personality clashes over negotiations quickly rock the boat. As both teams navigate their way to the finish, one takes a punt by returning with items missing, while disregarding the deadline leaves the others facing mutiny.

In a heated first boardroom, Lord Sugar doles out hefty fines and on the losing team and someone becomes the first to be fired.

First broadcast: 3 October 2018
Duration:  1 hour

Torrent dead? Request reseed at demonoid.pw, fotohot-artis.com or katcr.co - or ask at [email protected]



Media info:-
General
Format : MPEG-4
Format profile : Base Media
Codec ID : isom (isom/iso2/avc1/mp41)
File size : 2.22 GiB
Duration : 59mn 0s
Overall bit rate mode : Variable
Overall bit rate : 5 377 Kbps
Writing application : Lavf57.83.100

Video
ID : 1
Format : AVC
Format/Info : Advanced Video Codec
Format profile : [email protected]
Format settings, CABAC : Yes
Format settings, ReFrames : 4 frames
Codec ID : avc1
Codec ID/Info : Advanced Video Coding
Duration : 59mn 0s
Bit rate : 5 052 Kbps
Width : 1 280 pixels
Height : 720 pixels
Display aspect ratio : 16:9
Frame rate mode : Constant
Frame rate : 50.000 fps
Color space : YUV
Chroma subsampling : 4:2:0
Bit depth : 8 bits
Scan type : Progressive
Bits/(Pixel*Frame) : 0.110
Stream size : 2.08 GiB (94%)
Encoded date : UTC 1904-01-01 00:00:00
Tagged date : UTC 1904-01-01 00:00:00
Color range : Limited
Color primaries : BT.709
Transfer characteristics : BT.709
Matrix coefficients : BT.709

Audio
ID : 2
Format : AAC
Format/Info : Advanced Audio Codec
Format profile : LC
Codec ID : 40
Duration : 59mn 0s
Bit rate mode : Variable
Bit rate : 320 Kbps
Channel(s) : 2 channels
Channel positions : Front: L R
Sampling rate : 48.0 KHz
Frame rate : 46.875 fps (1024 spf)
Compression mode : Lossy
Stream size : 134 MiB (6%)

Files:

The Apprentice S14E01 Malta
  • About this torrent.txt (2.7 KB)
  • If this torrent is dead.txt (0.1 KB)
  • The Apprentice S14E01 Malta.jpg (418.5 KB)
  • The Apprentice S14E01 Malta.mp4 (2.2 GB)
  • The Apprentice S14E01 Malta.srt (160.1 KB)
  • Torrent Downloaded From fotohot-artis.com.txt (0.0 KB)
  • Torrent Downloaded From Katcr.co - Kickasstorrents.txt (0.1 KB)

Comments

Code:

  • udp://tracker.leechers-paradise.org:6969/announce
  • udp://tracker.coppersurfer.tk:6969/announce
  • udp://tracker.opentrackr.org:1337/announce
  • udp://tracker.zer0day.to:1337/announce
  • udp://eddie4.nl:6969/announce
  • udp://inferno.demonoid.pw:3391/announce
SitemapSHIPPED FROM OVERSEAS Generic Bluetooth Headphones Wireless Business Earphone In-ear Stereo Music Headset Earpiece Hands-free with Microphone -20% KSh 310 KSh 387 N/A Buy now | Das Messer (1985) | deffinetion of business terms - 607 Words Technischer Zeichenbedarf | 6 K Tomb Raider: Лара Крофт 2018 | Baywatch (2017)