Dont.Be.Afraid.of.the.Dark.2011.Uncropped.HDRip.XVID.AC3.HQ.Hive-...

  • Category Movies
  • Type Divx/Xvid
  • Language English
  • Total size 1.2 GB
  • Uploaded By bone111
  • Downloads 4062
  • Last checked 4 months ago
  • Date uploaded 6 years ago
  • Seeders 0
  • Leechers 0

Infohash : 6D92779C3A8BA3E9C113A3DD8EC283F40391F29A




Dont.Be.Afraid.of.the.Dark.2011.Uncropped.HDRip.XVID.AC3.HQ.Hive-CM8


Thx Hive

CM8 Doing It Right The First Time :D


Source:
Dont Be Afraid Of The Dark 2011 KORSUBBED HDRIP-P2P
thx

Encode:
another good movie that needed a total makeover.
Video suffered from darkness and lack of any colours, also audio was very bad to hear, noise,
hiss, hum everything which makes it total hard to watch and hear. Firstly this korsubs movie
have that 2 line subs, blurring is not possible looks bad and cropping is ok in this case
since its nearly fullscreen. Since i couldnt decide to crop or not, i have done both versions,
for you to decide what you like more. Check the pics, check the sample, and decide which
version you want to have, both version will be available simultaneously.

I fixed the aspect the resolution, filtered the colours added brightness,contrast,sharpness
denoise tried to remove some of the interlace that was still in there. totally cleaned up
the audiotrack, behind all that noise in the audio is a good audiotrack just needed tweak
here and there. its now totally watchable and you can see and hear the movie - enjoy

Video: 720x394 @bitrate 1400 2pass
Audio: English AC3 2.0 Stereo
Sample: yes, included



http://www.imdb.com/title/tt1270761/


General
Complete name : Dont.Be.Afraid.of.the.Dark.2011.Uncropped.HDRip.XVID.AC3.HQ.Hive-CM8.avi
Format : AVI
Format/Info : Audio Video Interleave
File size : 1.16 GiB
Duration : 1h 39mn
Overall bit rate : 1 670 Kbps
Writing application : Nandub v1.0rc2
Writing library : Nandub build 1853/release

Video
ID : 0
Format : MPEG-4 Visual
Format profile : Advanced [email protected]
Format settings, BVOP : 2
Format settings, QPel : Yes
Format settings, GMC : No warppoints
Format settings, Matrix : Default (H.263)
Muxing mode : Packed bitstream
Codec ID : XVID
Codec ID/Hint : XviD
Duration : 1h 39mn
Bit rate : 1 404 Kbps
Width : 720 pixels
Height : 394 pixels
Display aspect ratio : 16:9
Frame rate : 23.976 fps
Color space : YUV
Chroma subsampling : 4:2:0
Bit depth : 8 bits
Scan type : Progressive
Compression mode : Lossy
Bits/(Pixel*Frame) : 0.206
Stream size : 998 MiB (84%)
Writing library : XviD 1.2.1 (UTC 2008-12-04)

Audio
ID : 1
Format : AC-3
Format/Info : Audio Coding 3
Mode extension : CM (complete main)
Codec ID : 2000
Duration : 1h 39mn
Bit rate mode : Constant
Bit rate : 256 Kbps
Channel(s) : 2 channels
Channel positions : Front: L R
Sampling rate : 48.0 KHz
Bit depth : 16 bits
Compression mode : Lossy
Stream size : 182 MiB (15%)
Alignment : Split accross interleaves
Interleave, duration : 42 ms (1.00 video frame)
Interleave, preload duration : 500 ms


Plot:
A young girl sent to live with her father and his new girlfriend discovers
creatures in her new home who want to claim her as one of their own.


Cast:
Katie Holmes ... Kim
Guy Pearce ... Alex
Bailee Madison ... Sally















Greetz

ViSiON,SiC,SANTi,3LT0N,YanKeeS,MAGNET,THC,T0XiC,LKRG,FANTASIA-PLAY,FANTASIA-M,FLAWL3SS,
D2U,WBZ,BHRG,NOVA,Vik,Rapeseed,SAFC,goldadvance,MEMORY100,KaN1vE,Unevano,Pinnz,Wayne
Mr Hive,cedrict wink,and all P2P groups
Great Work Guys :D

FYS

LOOKING FOR ANYTHING YOU WANT TO LOOK AND SOUND BETTER

[email protected]

Files:

  • Dont.Be.Afraid.of.the.Dark.2011.Uncropped.HDRip.XVID.AC3.HQ.Hive-CM8.avi (1.2 GB)
  • Dont.Be.Afraid.of.the.Dark.2011.Uncropped.HDRip.XVID.AC3.HQ.Hive-CM8.nfo (4.8 KB)
  • sample.avi (12.9 MB)

Comments

Code:

  • http://tracker.publicbt.com:80/announce
  • http://9.rarbg.com:2710/announce
  • udp://tracker.openbittorrent.com:80/announce
  • http://tracker.torrentbay.to:6969/announce
  • http://tracker.torrent.to:2710/announce
  • http://pow7.com:80/announce
  • http://10.rarbg.com/announce
SitemapMatureNL.18.11.13.Beau.Diamo... | Klippers (2018) | WSET Level 2-- Italy Mogli - Teaser Trailer Legendado Português | [UWF] Utawarerumono - Itsuwari no Kamen - 25 [521F3A70].mkv | The Predator